conanlcg
超級版主

[2013] [歐美] [其他] [WEB-1080P] 殺戮部隊 The.Kill.Team.2013.1080p.WEBRip.x264-RARBG 1.51GB

-->

帖子完整標題:殺戮部隊 The.Kill.Team.2013.1080p.WEBRip.x264-RARBG 1.51GB




◎譯  名 殺戮部隊
◎片  名 The Kill Team
◎年  代 2013
◎產  地 美國
◎類  別 紀錄片
◎語  言 英語
◎上映日期 2013-04-26(美國) / 2013-10-15(英國) / 2013-10-16(波蘭) / 2014-02-28(盧森堡)
◎IMDb評分 7.0/10 from 1093 users
◎IMDb鏈接 https://www.imdb.com/title/tt2732932
◎豆瓣評分 0/10 from 0 users
◎豆瓣鏈接 https://movie.douban.com/subject/22606875/
◎片  長 79分鐘
◎導  演 丹·克勞斯 Dan Krauss
◎主  演 Adam Winfield
      Christopher Winfield
      Emma Winfield


◎標  簽 紀錄片 | 美國 | 戰爭 | 美國電影 | 2014 | 2013 | 電影 | 犯罪

◎簡  介

  A documentary that unveils the moral tensions that tear at soldiers' psyches through the lens of one highly personal story: Private Adam Winfield was a 21-year-old soldier in Afghanistan when he attempted with the help of his father to alert the military to heinous war crimes his platoon was committing. But Winfield's pleas went unheeded. Left on his own and with threats to his life, Private Winfield was himself drawn into the moral abyss, forced to make a split-second decision that would change his life forever.

◎獲獎情況

  第67屆美國導演工會獎(2015)
  最佳紀錄片導演(提名) 丹·克勞斯

  第86屆美國國家評論協會獎(2014)
  五佳紀錄片

  第30屆美國獨立精神獎(2015)
  “比虛構更真實”獎(紀錄片) 丹·克勞斯
Video
ID : 1
Format : AVC
Format/Info : Advanced Video Codec
Format profile : [email protected]
Format settings : CABAC / 4 Ref Frames
Format settings, CABAC : Yes
Format settings, Reference frames : 4 frames
Codec ID : avc1
Codec ID/Info : Advanced Video Coding
Duration : 1 h 19 min
Bit rate : 2 500 kb/s
Width : 1 920 pixels
Height : 1 080 pixels
Display aspect ratio : 16:9
Frame rate mode : Constant
Frame rate : 23.976 (23976/1000) FPS
Color space : YUV
Chroma subsampling : 4:2:0
Bit depth : 8 bits
Scan type : Progressive
Bits/(Pixel*Frame) : 0.050
Stream size : 1.38 GiB (92%)
Writing library : x264 core 152 r2851M ba24899
Encoding settings : cabac=1 / ref=4 / deblock=1:-1:-1 / analyse=0x3:0x113 / me=umh / subme=9 / psy=1 / psy_rd=1.00:0.15 / mixed_ref=1 / me_range=24 / chroma_me=1 / trellis=2 / 8x8dct=1 / cqm=0 / deadzone=21,11 / fast_pskip=1 / chroma_qp_offset=-3 / threads=16 / lookahead_threads=4 / sliced_threads=0 / nr=0 / decimate=1 / interlaced=0 / bluray_compat=0 / constrained_intra=0 / bframes=3 / b_pyramid=2 / b_adapt=2 / b_bias=0 / direct=3 / weightb=1 / open_gop=0 / weightp=2 / keyint=250 / keyint_min=25 / scenecut=40 / intra_refresh=0 / rc_lookahead=50 / rc=2pass / mbtree=1 / bitrate=2500 / ratetol=1.0 / qcomp=0.60 / qpmin=0 / qpmax=69 / qpstep=4 / cplxblur=20.0 / qblur=0.5 / vbv_maxrate=31250 / vbv_bufsize=31250 / nal_hrd=none / filler=0 / ip_ratio=1.40 / aq=3:1.00
Encoded date : UTC 2019-11-04 06:20:58
Tagged date : UTC 2019-11-04 06:20:58
Codec configuration box : avcC

Audio
ID : 2
Format : AAC LC
Format/Info : Advanced Audio Codec Low Complexity
Codec ID : mp4a-40-2
Duration : 1 h 19 min
Bit rate mode : Constant
Bit rate : 224 kb/s
Channel(s) : 2 channels
Channel layout : L R
Sampling rate : 48.0 kHz
Frame rate : 46.875 FPS (1024 SPF)
Compression mode : Lossy
Stream size : 127 MiB (8%)
Language : English
Default : Yes
Alternate group : 1
Encoded date : UTC 2019-11-04 06:20:58
Tagged date : UTC 2019-11-04 06:20:58





1 個附件 售價 大小 下載 時間

The.Kill.Team.2013.1080p.WEBRip.x264-RARBG.torrent 0 金幣 15.75K 448 次 3月前

#1樓
發帖時間:2019-11-04 16:11:21   |   回復數:1
911degrees
隱世仙人♂
非常感謝,謝謝分享
3月前 #2樓
游客組