conanlcg
超級版主

[2018] [歐美] [劇情] [BD-720P] 薇塔與弗吉尼亞/薇塔和維吉尼亞 Vita.and.Virginia.2018.720p.BluRay.X264-AMIABLE 4.37GB

-->

帖子完整標題:薇塔與弗吉尼亞/薇塔和維吉尼亞 Vita.and.Virginia.2018.720p.BluRay.X264-AMIABLE 4.37GB




◎譯  名 薇塔與弗吉尼亞 / 薇塔和維吉尼亞
◎片  名 Vita and Virginia
◎年  代 2018
◎產  地 英國
◎類  別 劇情 / 愛情 / 同性 / 傳記
◎語  言 英語
◎上映日期 2018-09-11(多倫多電影節) / 2019-08-23(美國)
◎IMDb評分 5.4/10 from 403 users
◎IMDb鏈接 http://www.imdb.com/title/tt5859882
◎豆瓣評分 6.8/10 from 71 users
◎豆瓣鏈接 https://movie.douban.com/subject/26322767/
◎片  長 110分鐘
◎導  演 錢亞·波頓 Chanya Button
◎編  劇 艾琳·阿特金斯 Eileen Atkins / 弗吉尼亞·伍爾芙 Virginia Woolf / Vita Sackville-West
◎主  演 杰瑪·阿特登 Gemma Arterton
      伊麗莎白·德比茨基 Elizabeth Debicki
      伊莎貝拉·羅西里尼 Isabella Rossellini
      魯伯特·彭利-瓊斯 Rupert Penry-Jones
      彼得·費迪南多 Peter Ferdinando


◎標  簽 英國 | 傳記 | LGBT | VirginiaWoolf | 英國電影 | 同性 | Les | 愛情

◎簡  介

  影片背景設定在20年代的倫敦,劇情將會聚焦伍爾芙與韋斯特之間的情事:弗吉尼亞·史蒂芬1912年嫁給倫納德·伍爾夫,接著遇見了上流社會人士兼作家薇塔·薩克維爾·韋斯特——哈羅德·尼科爾森的妻子。自1922始,她們開啟了一段長達十年的戀情,并維持著性關系,互通了很多情書和日記。在她們的戀情終結之后,兩人仍保持著良好的朋友關系,直到1941年伍爾芙去世。
  這將是Chanya Button自2015年《Burn Burn Burn》之后執導的第二部劇情長片,艾琳·阿特金斯編寫劇本,根據她出演的同名舞臺劇(1993年首次在倫敦上演,1994年登陸百老匯)改編,還會基于伍爾芙和韋斯特之間的情書進行創作。伊娃·格林和安德麗亞·瑞斯波羅格此前曾接觸過伍爾芙這個角色,后相繼退出。導演稱這是一部“新鮮刺激,充滿創造力、激情與性欲”的影片。其他卡司包括伊莎貝拉·羅西里尼、魯伯特·彭利·瓊斯、彼得·費迪南多,9月愛爾蘭開拍。
Video
ID : 1
Format : AVC
Format/Info : Advanced Video Codec
Format profile : [email protected]
Format settings : CABAC / 5 Ref Frames
Format settings, CABAC : Yes
Format settings, Reference frames : 5 frames
Codec ID : V_MPEG4/ISO/AVC
Duration : 1 h 49 min
Bit rate : 4 178 kb/s
Width : 1 280 pixels
Height : 688 pixels
Display aspect ratio : 1.85:1
Frame rate mode : Constant
Frame rate : 24.000 FPS
Color space : YUV
Chroma subsampling : 4:2:0
Bit depth : 8 bits
Scan type : Progressive
Bits/(Pixel*Frame) : 0.198
Stream size : 3.12 GiB (71%)
Writing library : x264 core 158 r2984 3759fcb
Encoding settings : cabac=1 / ref=5 / deblock=1:-3:-3 / analyse=0x3:0x113 / me=umh / subme=8 / psy=1 / psy_rd=1.00:0.00 / mixed_ref=1 / me_range=24 / chroma_me=1 / trellis=2 / 8x8dct=1 / cqm=0 / deadzone=21,11 / fast_pskip=1 / chroma_qp_offset=-2 / threads=21 / lookahead_threads=3 / sliced_threads=0 / nr=0 / decimate=1 / interlaced=0 / bluray_compat=0 / constrained_intra=0 / bframes=3 / b_pyramid=2 / b_adapt=2 / b_bias=0 / direct=3 / weightb=1 / open_gop=0 / weightp=2 / keyint=240 / keyint_min=24 / scenecut=40 / intra_refresh=0 / rc_lookahead=50 / rc=2pass / mbtree=1 / bitrate=4178 / ratetol=1.0 / qcomp=0.60 / qpmin=0 / qpmax=69 / qpstep=4 / cplxblur=20.0 / qblur=0.5 / ip_ratio=1.40 / aq=3:0.80
Default : Yes
Forced : No
Statistics Tags Issue : no_variable_data 1970-01-01 00:00:00 / no_variable_data 2010-02-22 21:41:29
FromStats_BitRate : 4176970
FromStats_Duration : 01:49:58.042000000
FromStats_FrameCount : 158353
FromStats_StreamSize : 3444978456

Audio
ID : 2
Format : DTS
Format/Info : Digital Theater Systems
Codec ID : A_DTS
Duration : 1 h 49 min
Bit rate mode : Constant
Bit rate : 1 509 kb/s
Channel(s) : 6 channels
Channel layout : C L R Ls Rs LFE
Sampling rate : 48.0 kHz
Frame rate : 93.750 FPS (512 SPF)
Bit depth : 24 bits
Compression mode : Lossy
Stream size : 1.16 GiB (27%)
Language : English
Default : Yes
Forced : No
Statistics Tags Issue : no_variable_data 1970-01-01 00:00:00 / no_variable_data 2010-02-22 21:41:29
FromStats_BitRate : 1509000
FromStats_Duration : 01:49:57.024000000
FromStats_FrameCount : 618471
FromStats_StreamSize : 1244363652

Menu
00:00:00.000 : en:Chapter 01
00:06:55.333 : en:Chapter 02
00:13:37.333 : en:Chapter 03
00:22:19.875 : en:Chapter 04
00:34:17.292 : en:Chapter 05
00:48:27.250 : en:Chapter 06
01:00:35.083 : en:Chapter 07
01:05:07.292 : en:Chapter 08
01:13:20.875 : en:Chapter 09
01:29:31.167 : en:Chapter 10
01:36:08.042 : en:Chapter 11
01:44:28.292 : en:Chapter 12





1 個附件 售價 大小 下載 時間

Vita.and.Virginia.2018.720p.BluRay.X264-AMIABLE.torrent 0 金幣 44.42K 665 次 3月前

#1樓
發帖時間:2019-11-04 17:08:26   |   回復數:1
911degrees
隱世仙人♂
非常感謝,謝謝分享
3月前 #2樓
游客組