conanlcg
超級版主

[更 早] [歐美] [劇情] [4K-原盤] 再造戰士/宇宙戰士 Universal.Soldier.1992.2160p.BluRay.REMUX.HEVC.DTS-HD.MA.5.1-FGT 68.52

-->

帖子完整標題:再造戰士/宇宙戰士 Universal.Soldier.1992.2160p.BluRay.REMUX.HEVC.DTS-HD.MA.5.1-FGT 68.52GB




◎譯  名 再造戰士 / 宇宙戰士 / 魔鬼命令
◎片  名 Universal Soldier
◎年  代 1992
◎產  地 美國
◎類  別 劇情 / 動作 / 科幻
◎語  言 英語
◎上映日期 1992-07-10
◎IMDb評分 6.0/10 from 78583 users
◎IMDb鏈接 https://www.imdb.com/title/tt0105698
◎豆瓣評分 6.6/10 from 2917 users
◎豆瓣鏈接 https://movie.douban.com/subject/1298717/
◎片  長 102 分鐘
◎導  演 羅蘭·艾默里奇 Roland Emmerich
◎編  劇 Christopher Leitch / Richard Rothstein
◎主  演 杜夫·朗格 Dolph Lundgren
      尚格·云頓 Jean-Claude Van Damme
      艾利·沃克 Ally Walker


◎標  簽 科幻 | 動作 | 美國 | 尚格·云頓 | 1992 | 美國電影 | 暴力 | 動作片

◎簡  介

  越戰后,美國政府進行了一項絕密的科學計劃。科學家們將越戰中犧牲的士兵的尸體冰凍起來,植入電腦芯片,輸入戰爭程序,講他們改造成為新一代的戰爭機器人――“宇宙戰士”,這些機器人沒有情感和以前的記憶,只有冰冷的殺戮武器。士兵盧克(尚格?云頓 Jean-Claude Van Damme 飾)和班長安德魯(杜夫?朗格 Dolph Lundgren 飾)就是其中兩員,他們被派往參加一場新的戰爭。戰爭中,兩人的芯片突然出錯,令兩人都恢復了以前的記憶。
  盧克記起越戰當年正是安德魯突然性情大變將屬下和俘虜都殺光,誤闖美軍基地的女記者羅伯斯(艾麗?沃克 Ally Walker 飾)意外獲悉了美軍這一秘密。本來羅伯斯難逃一死,關鍵時刻盧克救走了她。于是,美軍派出所有的宇宙戰士開始追殺二人。
Video #1
ID : 1
Format : HEVC
Format/Info : High Efficiency Video Coding
Format profile : Main [email protected]@High
HDR format : SMPTE ST 2086, HDR10 compatible
Codec ID : V_MPEGH/ISO/HEVC
Duration : 1 h 43 min
Bit rate : 64.0 Mb/s
Width : 3 840 pixels
Height : 2 160 pixels
Display aspect ratio : 16:9
Frame rate mode : Constant
Frame rate : 24.000 FPS
Color space : YUV
Chroma subsampling : 4:2:0 (Type 2)
Bit depth : 10 bits
Bits/(Pixel*Frame) : 0.321
Stream size : 46.2 GiB (67%)
Title : Universal.Soldier.1992.2160p.BluRay.REMUX.HEVC.DTS-HD.MA.5.1-FGT
Language : English
Default : Yes
Forced : No
Color range : Limited
Color primaries : BT.2020
Transfer characteristics : PQ
Matrix coefficients : BT.2020 non-constant
Mastering display color primaries : Display P3
Mastering display luminance : min: 0.0001 cd/m2, max: 1000 cd/m2
Maximum Content Light Level : 818 cd/m2
Maximum Frame-Average Light Level : 554 cd/m2

Video #2
ID : 2
Format : HEVC
Format/Info : High Efficiency Video Coding
Format profile : Main [email protected]@High
HDR format : SMPTE ST 2086, HDR10 compatible
Codec ID : V_MPEGH/ISO/HEVC
Duration : 1 h 43 min
Bit rate : 16.0 Mb/s
Width : 1 920 pixels
Height : 1 080 pixels
Display aspect ratio : 16:9
Frame rate mode : Constant
Frame rate : 24.000 FPS
Color space : YUV
Chroma subsampling : 4:2:0 (Type 2)
Bit depth : 10 bits
Bits/(Pixel*Frame) : 0.322
Stream size : 11.6 GiB (17%)
Title : Universal.Soldier.1992.2160p.BluRay.REMUX.HEVC.DTS-HD.MA.5.1-FGT
Default : No
Forced : No
Color range : Limited
Color primaries : BT.2020
Transfer characteristics : PQ
Matrix coefficients : BT.2020 non-constant
Mastering display color primaries : Display P3
Mastering display luminance : min: 0.0001 cd/m2, max: 1000 cd/m2

Audio #1
ID : 3
Format : DTS XLL
Format/Info : Digital Theater Systems
Commercial name : DTS-HD Master Audio
Codec ID : A_DTS
Duration : 1 h 43 min
Bit rate mode : Variable
Bit rate : 4 287 kb/s
Channel(s) : 6 channels
Channel layout : C L R Ls Rs LFE
Sampling rate : 48.0 kHz
Frame rate : 93.750 FPS (512 SPF)
Bit depth : 24 bits
Compression mode : Lossless
Stream size : 3.09 GiB (5%)
Title : Universal.Soldier.1992.2160p.BluRay.REMUX.HEVC.DTS-HD.MA.5.1-FGT
Language : English
Default : Yes
Forced : No

Audio #2
ID : 4
Format : DTS XLL
Format/Info : Digital Theater Systems
Commercial name : DTS-HD Master Audio
Codec ID : A_DTS
Duration : 1 h 43 min
Bit rate mode : Variable
Bit rate : 3 892 kb/s
Channel(s) : 6 channels
Channel layout : C L R Ls Rs LFE
Sampling rate : 48.0 kHz
Frame rate : 93.750 FPS (512 SPF)
Bit depth : 24 bits
Compression mode : Lossless
Stream size : 2.81 GiB (4%)
Title : Universal.Soldier.1992.2160p.BluRay.REMUX.HEVC.DTS-HD.MA.5.1-FGT
Language : German
Default : No
Forced : No

Audio #3
ID : 5
Format : DTS XLL
Format/Info : Digital Theater Systems
Commercial name : DTS-HD Master Audio
Codec ID : A_DTS
Duration : 1 h 43 min
Bit rate mode : Variable
Bit rate : 3 524 kb/s
Channel(s) : 6 channels
Channel layout : C L R Ls Rs LFE
Sampling rate : 48.0 kHz
Frame rate : 93.750 FPS (512 SPF)
Bit depth : 24 bits
Compression mode : Lossless
Stream size : 2.54 GiB (4%)
Title : Universal.Soldier.1992.2160p.BluRay.REMUX.HEVC.DTS-HD.MA.5.1-FGT
Language : French
Default : No
Forced : No

Audio #4
ID : 6
Format : DTS XLL
Format/Info : Digital Theater Systems
Commercial name : DTS-HD Master Audio
Codec ID : A_DTS
Duration : 1 h 43 min
Bit rate mode : Variable
Bit rate : 1 508 kb/s
Channel(s) : 2 channels
Channel layout : L R
Sampling rate : 48.0 kHz
Frame rate : 93.750 FPS (512 SPF)
Bit depth : 24 bits
Compression mode : Lossless
Stream size : 1.09 GiB (2%)
Title : Universal.Soldier.1992.2160p.BluRay.REMUX.HEVC.DTS-HD.MA.5.1-FGT
Language : English
Default : No
Forced : No

Audio #5
ID : 7
Format : DTS XLL
Format/Info : Digital Theater Systems
Commercial name : DTS-HD Master Audio
Codec ID : A_DTS
Duration : 1 h 43 min
Bit rate mode : Variable
Bit rate : 1 616 kb/s
Channel(s) : 2 channels
Channel layout : L R
Sampling rate : 48.0 kHz
Frame rate : 93.750 FPS (512 SPF)
Bit depth : 24 bits
Compression mode : Lossless
Stream size : 1.17 GiB (2%)
Title : Universal.Soldier.1992.2160p.BluRay.REMUX.HEVC.DTS-HD.MA.5.1-FGT
Language : English
Default : No
Forced : No

Text #1
ID : 8
Format : UTF-8
Codec ID : S_TEXT/UTF8
Codec ID/Info : UTF-8 Plain Text
Duration : 1 h 36 min
Bit rate : 47 b/s
Count of elements : 1050
Stream size : 33.3 KiB (0%)
Title : English-SRT
Language : English
Default : Yes
Forced : No

Text #2
ID : 9
Format : UTF-8
Codec ID : S_TEXT/UTF8
Codec ID/Info : UTF-8 Plain Text
Duration : 1 h 37 min
Bit rate : 57 b/s
Count of elements : 1246
Stream size : 40.7 KiB (0%)
Title : English-SDH-SRT
Language : English
Default : No
Forced : No

Text #3
ID : 10
Format : PGS
Muxing mode : zlib
Codec ID : S_HDMV/PGS
Codec ID/Info : Picture based subtitle format used on BDs/HD-DVDs
Duration : 1 h 41 min
Bit rate : 19.3 kb/s
Count of elements : 1660
Stream size : 14.0 MiB (0%)
Title : German-PGS
Language : German
Default : No
Forced : No

Text #4
ID : 11
Format : PGS
Muxing mode : zlib
Codec ID : S_HDMV/PGS
Codec ID/Info : Picture based subtitle format used on BDs/HD-DVDs
Duration : 1 h 37 min
Bit rate : 27.9 kb/s
Count of elements : 2492
Stream size : 19.4 MiB (0%)
Title : English-PGS
Language : English
Default : No
Forced : No

Text #5
ID : 12
Format : PGS
Muxing mode : zlib
Codec ID : S_HDMV/PGS
Codec ID/Info : Picture based subtitle format used on BDs/HD-DVDs
Duration : 1 h 41 min
Bit rate : 15.2 kb/s
Count of elements : 1888
Stream size : 11.1 MiB (0%)
Title : French-PGS
Language : French
Default : No
Forced : No

Text #6
ID : 13
Format : PGS
Muxing mode : zlib
Codec ID : S_HDMV/PGS
Codec ID/Info : Picture based subtitle format used on BDs/HD-DVDs
Duration : 1 h 38 min
Bit rate : 27.1 kb/s
Count of elements : 2184
Stream size : 19.2 MiB (0%)
Title : German-PGS
Language : German
Default : No
Forced : No

Text #7
ID : 14
Format : PGS
Muxing mode : zlib
Codec ID : S_HDMV/PGS
Codec ID/Info : Picture based subtitle format used on BDs/HD-DVDs
Duration : 1 h 38 min
Bit rate : 27.2 kb/s
Count of elements : 2186
Stream size : 19.2 MiB (0%)
Title : French-PGS
Language : French
Default : No
Forced : No

Text #8
ID : 15
Format : PGS
Muxing mode : zlib
Codec ID : S_HDMV/PGS
Codec ID/Info : Picture based subtitle format used on BDs/HD-DVDs
Duration : 1 h 36 min
Bit rate : 20.6 kb/s
Count of elements : 1288
Stream size : 14.2 MiB (0%)
Title : German-PGS
Language : German
Default : No
Forced : No

Text #9
ID : 16
Format : PGS
Muxing mode : zlib
Codec ID : S_HDMV/PGS
Codec ID/Info : Picture based subtitle format used on BDs/HD-DVDs
Duration : 1 h 13 min
Bit rate : 154 b/s
Count of elements : 10
Stream size : 83.3 KiB (0%)
Title : German-FORCED-PGS
Language : German
Default : No
Forced : No

Text #10
ID : 17
Format : PGS
Muxing mode : zlib
Codec ID : S_HDMV/PGS
Codec ID/Info : Picture based subtitle format used on BDs/HD-DVDs
Duration : 1 h 13 min
Bit rate : 142 b/s
Count of elements : 10
Stream size : 77.0 KiB (0%)
Title : French-FORCED-PGS
Language : French
Default : No
Forced : No

Menu
00:00:00.000 : en:Chapter 01
00:10:27.458 : en:Chapter 02
00:20:51.791 : en:Chapter 03
00:31:24.750 : en:Chapter 04
00:42:41.333 : en:Chapter 05
00:53:13.625 : en:Chapter 06
01:04:07.500 : en:Chapter 07
01:14:22.666 : en:Chapter 08
01:21:52.958 : en:Chapter 09
01:31:32.875 : en:Chapter 10





1 個附件 售價 大小 下載 時間

Universal.Soldier.1992.2160p.BluRay.REMUX.HEVC.DTS-HD.MA.5.1-FGT.torrent 0 金幣 171.86K 658 次 3月前

#1樓
發帖時間:2019-11-04 17:30:05   |   回復數:1
911degrees
隱世仙人♂
非常感謝,謝謝分享
3月前 #2樓
游客組