conanlcg
超級版主

[2018] [歐美] [喜劇] [WEB-1080P] 與親人共度圣誕節 Surviving.Christmas.With.The.Relatives.2018.1080p.NF.WEBRip.DDP5.1.x264

-->

帖子完整標題:與親人共度圣誕節 Surviving.Christmas.With.The.Relatives.2018.1080p.NF.WEBRip.DDP5.1.x264-IKA 3.83GB




◎譯  名 與親人共度圣誕節
◎片  名 Surviving Christmas With the Relatives
◎年  代 2018
◎產  地 英國
◎類  別 喜劇
◎語  言 英語
◎上映日期 2018-11-30(英國)
◎IMDb評分 6.9/10 from 16 users
◎IMDb鏈接 http://www.imdb.com/title/tt8255490
◎豆瓣評分 0/10 from 0 users
◎豆瓣鏈接 https://movie.douban.com/subject/30396312/
◎片  長 101分鐘
◎導  演 詹姆斯·迪爾登 James Dearden
◎編  劇 詹姆斯·迪爾登 James Dearden
◎主  演 朱利安·歐文登 Julian Ovenden
      杰瑪·韋蘭 Gemma Whelan
      喬莉·理查德森 Joely Richardson
      邁克爾·蘭德斯 Michael Landes
      莎莉·菲利普斯 Sally Phillips
      派翠西亞·霍吉 Patricia Hodge
      榮妮·安柯納 Ronni Ancona
      詹姆斯·福克斯 James Fox


◎簡  介

  Two sisters and their families spend - or rather, endure - Christmas at their late parents' dilapidated country house.
Video
ID : 1
Format : AVC
Format/Info : Advanced Video Codec
Format profile : [email protected]
Format settings : CABAC / 3 Ref Frames
Format settings, CABAC : Yes
Format settings, Reference frames : 3 frames
Codec ID : V_MPEG4/ISO/AVC
Duration : 1 h 41 min
Bit rate mode : Variable
Bit rate : 4 870 kb/s
Maximum bit rate : 7 305 kb/s
Width : 1 920 pixels
Height : 1 080 pixels
Display aspect ratio : 16:9
Frame rate mode : Constant
Frame rate : 24.000 FPS
Color space : YUV
Chroma subsampling : 4:2:0
Bit depth : 8 bits
Scan type : Progressive
Bits/(Pixel*Frame) : 0.098
Stream size : 3.37 GiB (88%)
Writing library : x264 core 148 r2715 7e75228
Encoding settings : cabac=1 / ref=3 / deblock=1:0:0 / analyse=0x1:0x111 / me=umh / subme=10 / psy=1 / psy_rd=1.00:0.00 / mixed_ref=1 / me_range=24 / chroma_me=1 / trellis=2 / 8x8dct=0 / cqm=0 / deadzone=21,11 / fast_pskip=1 / chroma_qp_offset=-2 / threads=8 / lookahead_threads=1 / sliced_threads=0 / nr=0 / decimate=1 / interlaced=0 / bluray_compat=0 / stitchable=1 / constrained_intra=0 / bframes=2 / b_pyramid=0 / b_adapt=2 / b_bias=0 / direct=3 / weightb=1 / open_gop=0 / weightp=2 / keyint=250 / keyint_min=24 / scenecut=0 / intra_refresh=0 / rc_lookahead=48 / rc=2pass / mbtree=1 / bitrate=4870 / ratetol=1.0 / qcomp=0.50 / qpmin=6 / qpmax=51 / qpstep=4 / cplxblur=20.0 / qblur=0.5 / vbv_maxrate=7305 / vbv_bufsize=9740 / nal_hrd=vbr / filler=0 / ip_ratio=1.40 / aq=1:1.00
Default : Yes
Forced : No

Audio
ID : 2
Format : E-AC-3
Format/Info : Enhanced AC-3
Commercial name : Dolby Digital Plus
Codec ID : A_EAC3
Duration : 1 h 41 min
Bit rate mode : Constant
Bit rate : 640 kb/s
Channel(s) : 6 channels
Channel layout : L R C LFE Ls Rs
Sampling rate : 48.0 kHz
Frame rate : 31.250 FPS (1536 SPF)
Compression mode : Lossy
Stream size : 464 MiB (12%)
Language : English
Service kind : Complete Main
Default : Yes
Forced : No

Text #1
ID : 3
Format : UTF-8
Codec ID : S_TEXT/UTF8
Codec ID/Info : UTF-8 Plain Text
Duration : 32 min 59 s
Bit rate : 4 b/s
Count of elements : 46
Stream size : 1.17 KiB (0%)
Title : Forced
Language : English
Default : Yes
Forced : Yes

Text #2
ID : 4
Format : UTF-8
Codec ID : S_TEXT/UTF8
Codec ID/Info : UTF-8 Plain Text
Duration : 1 h 40 min
Bit rate : 81 b/s
Count of elements : 2182
Stream size : 59.8 KiB (0%)
Title : SDH
Language : English
Default : No
Forced : No





1 個附件 售價 大小 下載 時間

Surviving.Christmas.With.The.Relatives.2018.1080p.NF.WEBRip.DDP5.1.x264-IKA.torrent 0 金幣 38.82K 308 次 3月前

#1樓
發帖時間:2019-11-04 18:56:38   |   回復數:1
911degrees
隱世仙人♂
非常感謝,謝謝分享
3月前 #2樓
游客組