conanlcg
超級版主

[更 早] [其他] [喜劇] [WEB-1080P] 國王的贖金/綁架計中計 Kings.Ransom.2005.1080p.NF.WEBRip.DDP5.1.x264-IKA 4.39GB

-->

帖子完整標題:國王的贖金/綁架計中計 Kings.Ransom.2005.1080p.NF.WEBRip.DDP5.1.x264-IKA 4.39GB




◎譯  名 國王的贖金 / 綁架計中計
◎片  名 King's Ransom
◎年  代 2005
◎產  地 美國 / 加拿大
◎類  別 喜劇 / 犯罪
◎語  言 英語
◎上映日期 2005-04-22
◎IMDb評分 4.3/10 from 3466 users
◎IMDb鏈接 https://www.imdb.com/title/tt0388183
◎豆瓣評分 5.7/10 from 48 users
◎豆瓣鏈接 https://movie.douban.com/subject/1309204/
◎片  長 95 分鐘
◎導  演 Jeffrey W. Byrd
◎編  劇 Wayne Conley
◎主  演 安東尼·安德森 Anthony Anderson
      杰·摩爾 Jay Mohr
      妮可·阿麗·帕克 Nicole Ari Parker


◎標  簽 喜劇 | 美國 | 2005 | 犯罪 | A-美國 | 惡搞 | 存 | 劇情

◎簡  介

  Anthony Anderson plays a rich, egotistical businessman nobody likes. When his ex-wife plans to bleed him dry in their divorce settlement, he stages his own kidnapping with the help of his ditzy mistress and her ex-con brother. However, his plot goes awry when the people who resent him also hatch kidnap plans of their own.
Video
ID : 1
Format : AVC
Format/Info : Advanced Video Codec
Format profile : [email protected]
Format settings : CABAC / 3 Ref Frames
Format settings, CABAC : Yes
Format settings, Reference frames : 3 frames
Codec ID : V_MPEG4/ISO/AVC
Duration : 1 h 37 min
Bit rate mode : Variable
Bit rate : 5 800 kb/s
Maximum bit rate : 8 700 kb/s
Width : 1 920 pixels
Height : 1 080 pixels
Display aspect ratio : 16:9
Frame rate mode : Constant
Frame rate : 23.976 (24000/1001) FPS
Color space : YUV
Chroma subsampling : 4:2:0
Bit depth : 8 bits
Scan type : Progressive
Bits/(Pixel*Frame) : 0.117
Stream size : 3.95 GiB (90%)
Writing library : x264 core 148 r2715 7e75228
Encoding settings : cabac=1 / ref=3 / deblock=1:0:0 / analyse=0x1:0x111 / me=umh / subme=10 / psy=1 / psy_rd=1.00:0.00 / mixed_ref=1 / me_range=24 / chroma_me=1 / trellis=2 / 8x8dct=0 / cqm=0 / deadzone=21,11 / fast_pskip=1 / chroma_qp_offset=-2 / threads=6 / lookahead_threads=1 / sliced_threads=0 / nr=0 / decimate=1 / interlaced=0 / bluray_compat=0 / stitchable=1 / constrained_intra=0 / bframes=2 / b_pyramid=0 / b_adapt=2 / b_bias=0 / direct=3 / weightb=1 / open_gop=0 / weightp=2 / keyint=250 / keyint_min=23 / scenecut=0 / intra_refresh=0 / rc_lookahead=48 / rc=2pass / mbtree=1 / bitrate=5800 / ratetol=1.0 / qcomp=0.50 / qpmin=6 / qpmax=51 / qpstep=4 / cplxblur=20.0 / qblur=0.5 / vbv_maxrate=8700 / vbv_bufsize=11600 / nal_hrd=vbr / filler=0 / ip_ratio=1.40 / aq=1:1.00
Default : Yes
Forced : No

Audio
ID : 2
Format : E-AC-3
Format/Info : Enhanced AC-3
Commercial name : Dolby Digital Plus
Codec ID : A_EAC3
Duration : 1 h 37 min
Bit rate mode : Constant
Bit rate : 640 kb/s
Channel(s) : 6 channels
Channel layout : L R C LFE Ls Rs
Sampling rate : 48.0 kHz
Frame rate : 31.250 FPS (1536 SPF)
Compression mode : Lossy
Stream size : 447 MiB (10%)
Language : English
Service kind : Complete Main
Default : Yes
Forced : No

Text
ID : 3
Format : UTF-8
Codec ID : S_TEXT/UTF8
Codec ID/Info : UTF-8 Plain Text
Duration : 1 h 37 min
Bit rate : 87 b/s
Count of elements : 3945
Stream size : 62.0 KiB (0%)
Title : SDH
Language : English
Default : No
Forced : No





1 個附件 售價 大小 下載 時間

Kings.Ransom.2005.1080p.NF.WEBRip.DDP5.1.x264-IKA.torrent 0 金幣 44.38K 189 次 3月前

#1樓
發帖時間:2019-11-04 19:03:02   |   回復數:1
911degrees
隱世仙人♂
非常感謝,謝謝分享
3月前 #2樓
游客組