conanlcg
超級版主

[2014] [歐美] [劇情] [WEB-1080P] 格倫·坎貝爾:我就是我 Glen.Campbell.Ill.Be.Me.2014.1080p.AMZN.WEBRip.DDP5.1.x264-QOQ 7.71G

-->

帖子完整標題:格倫·坎貝爾:我就是我 Glen.Campbell.Ill.Be.Me.2014.1080p.AMZN.WEBRip.DDP5.1.x264-QOQ 7.71GB




◎譯  名 格倫·坎貝爾:我就是我
◎片  名 Glen Campbell: I'll Be Me
◎年  代 2014
◎產  地 美國
◎類  別 劇情 / 紀錄片 / 音樂 / 家庭 / 傳記
◎語  言 英語
◎上映日期 2014-10-24(美國)
◎IMDb評分 8.0/10 from 1400 users
◎IMDb鏈接 https://www.imdb.com/title/tt2049586
◎豆瓣評分 0/10 from 0 users
◎豆瓣鏈接 https://movie.douban.com/subject/7065209/
◎片  長 116分鐘
◎導  演 詹姆斯·基徹 James Keach
◎主  演 格倫·坎貝爾 Glen Campbell
      Scott Borchetta
      Ashley Campbell
      Cal Campbell
      Kim Campbell
      Shannon Campbell
      Debby Campbell-Cloyd
      John Carter Cash
      比爾·克林頓 Bill Clinton
      雪兒·克勞 Sheryl Crow
      Vincent Gil
      Buddy Jewell
      杰·雷諾 Jay Leno
      Bill Maclay
      保羅·麥卡特尼 Paul McCartney


◎標  簽 紀錄片 | 美國 | 傳記 | 音樂 | 鄉村音樂 | 2014 | 紀錄 | 劇情

◎簡  介

  This powerful portrait of the life and career of great American music icon Glen Campbell opens to the viewer the world of the singular talent who created hits like Rhinestone Cowboy, Wichita Lineman and Gentle on My Mind. Winner of the Grammy for Lifetime Achievement and member of the Country Music Hall of Fame, Glen was the first country music star to cross over to the pop charts, opening a new realm of opportunity for generations of country musicians. In 2011, when Campbell was diagnosed with Alzheimer's disease, he joined forces with his family to fight the biggest battle of his life. Glen and his wife, Kim, made history by going public with the diagnosis - the first time a major American celebrity would share this experience with the world. The Campbell family then embarked on a short "Goodbye Tour," but the three-week engagement turned into an emotional and triumphant 151-show nationwide tour de force. This epic human drama about the undying bond between Glen and Kim, and their unwavering caring for each other, chronicles a story of love, resilience and the power of song. GLEN CAMPBELL...I'LL BE ME is the true tale of how America's greatest country star would not give up his music or his family, against all odds. The film features those who know and love Glen, including Bruce Springsteen, Bill Clinton, The Edge, Paul McCartney, Jay Leno, Vince Gill, Jimmy Webb, Blake Shelton, Sheryl Crow, Keith Urban, Brad Paisley, Steve Martin, Chad Smith and Taylor Swift among many others. Rare vintage footage and extraordinary new performances of Glen's most beloved hits immerse this moving cinematic account in the overwhelming talent of this humble family man. With joy and a tireless sense of humor, Glen and his family live each moment in the present while preparing for the future, all while playing their music to sold out venues on a star spangled voyage spanning the country from Carnegie Hall to the Hollywood Bowl.

◎獲獎情況

  第87屆奧斯卡金像獎(2015)
  最佳原創歌曲(提名) 朱利安·雷蒙德 / 格倫·坎貝爾
Video
ID : 1
Format : AVC
Format/Info : Advanced Video Codec
Format profile : [email protected]
Format settings : CABAC / 4 Ref Frames
Format settings, CABAC : Yes
Format settings, Reference frames : 4 frames
Codec ID : V_MPEG4/ISO/AVC
Duration : 1 h 44 min
Bit rate mode : Constant
Bit rate : 10 000 kb/s
Width : 1 920 pixels
Height : 1 080 pixels
Display aspect ratio : 16:9
Frame rate mode : Constant
Frame rate : 23.976 (24000/1001) FPS
Color space : YUV
Chroma subsampling : 4:2:0
Bit depth : 8 bits
Scan type : Progressive
Bits/(Pixel*Frame) : 0.201
Stream size : 7.24 GiB (94%)
Language : English
Default : Yes
Forced : No
Color range : Limited
Color primaries : BT.709
Transfer characteristics : BT.709
Matrix coefficients : BT.709

Audio
ID : 2
Format : E-AC-3
Format/Info : Enhanced AC-3
Commercial name : Dolby Digital Plus
Codec ID : A_EAC3
Duration : 1 h 44 min
Bit rate mode : Constant
Bit rate : 640 kb/s
Channel(s) : 6 channels
Channel layout : L R C LFE Ls Rs
Sampling rate : 48.0 kHz
Frame rate : 31.250 FPS (1536 SPF)
Compression mode : Lossy
Stream size : 479 MiB (6%)
Language : English
Service kind : Complete Main
Default : Yes
Forced : No

Text #1
ID : 3
Format : UTF-8
Codec ID : S_TEXT/UTF8
Codec ID/Info : UTF-8 Plain Text
Duration : 1 h 43 min
Bit rate : 85 b/s
Count of elements : 1980
Stream size : 65.0 KiB (0%)
Language : English
Default : No
Forced : No

Text #2
ID : 4
Format : UTF-8
Codec ID : S_TEXT/UTF8
Codec ID/Info : UTF-8 Plain Text
Duration : 1 h 44 min
Bit rate : 89 b/s
Count of elements : 2123
Stream size : 68.2 KiB (0%)
Title : SDH
Language : English
Default : No
Forced : No





1 個附件 售價 大小 下載 時間

Glen.Campbell.Ill.Be.Me.2014.1080p.AMZN.WEBRip.DDP5.1.x264-QOQ.torrent 0 金幣 39.08K 280 次 3月前

#1樓
發帖時間:2019-11-04 19:04:57   |   回復數:1
911degrees
隱世仙人♂
非常感謝,謝謝分享
3月前 #2樓
游客組