conanlcg
超級版主

[2018] [其他] [劇情] [WEB-1080P] 幸福 Euforia.2018.ITALIAN.1080p.NF.WEBRip.DDP5.1.x264-IKA 3.03GB

-->

帖子完整標題:幸福 Euforia.2018.ITALIAN.1080p.NF.WEBRip.DDP5.1.x264-IKA 3.03GB




◎譯  名 幸福 / Euphoria / 幸福騙局(臺) / 手足緣未了(港)
◎片  名 Euforia
◎年  代 2018
◎產  地 意大利
◎類  別 劇情
◎語  言 意大利語
◎上映日期 2018-05-15(戛納電影節) / 2018-10-25(意大利)
◎IMDb評分 6.7/10 from 511 users
◎IMDb鏈接 https://www.imdb.com/title/tt7779590
◎豆瓣評分 0/10 from 0 users
◎豆瓣鏈接 https://movie.douban.com/subject/30170828/
◎片  長 115分鐘
◎導  演 瓦萊麗亞·戈利諾 Valeria Golino
◎編  劇 瓦萊麗亞·戈利諾 Valeria Golino / 弗朗西斯卡·馬西亞諾 Francesca Marciano
◎主  演 里卡多·斯卡馬喬 Riccardo Scamarcio
      瓦萊里奧·馬斯坦德雷亞 Valerio Mastandrea
      伊沙貝拉·法雷利 Isabella Ferrari
      瓦倫蒂娜·切爾維 Valentina Cervi
      杰絲敏·特麗卡 Jasmine Trinca


◎標  簽 意大利 | 2018 | 劇情 | 意大利電影 | 同性 | 人生 | 一種關注 | 2018戛納

◎簡  介

  Matteo(Riccardo Scamarcio)是位成功的年輕企業家。他大膽、討喜、充滿活力。他的兄弟Ettore(Valerio Mastrandrea)是名中學教師,依然在兩人出生的小城里生活。這是一個謹慎、正直、害怕犯錯,不敢冒險,希望一直躲在陰影里的男人。兩人雖然性格迥異,但生活卻迫使他們相互靠近。在悲喜交加的生活漩渦中,艱難的條件成為兩兄弟相互了解、相互探索的契機。

◎獲獎情況

  第71屆戛納電影節(2018)
  一種關注單元 一種關注大獎(提名) 瓦萊麗亞·戈利諾
  同志金棕櫚獎(提名) 瓦萊麗亞·戈利諾

  第64屆意大利大衛獎(2019)
  最佳影片(提名)
  最佳導演(提名) 瓦萊麗亞·戈利諾
  最佳原創劇本(提名) 瓦利亞·桑泰拉 / 弗朗西斯卡·馬西亞諾 / 瓦萊麗亞·戈利諾
  最佳男主角(提名) 里卡多·斯卡馬喬
  最佳男配角(提名) 瓦萊里奧·馬斯坦德雷亞
  最佳音樂(提名)
  最佳剪輯(提名)
Video
ID : 1
Format : AVC
Format/Info : Advanced Video Codec
Format profile : [email protected]
Format settings : CABAC / 3 Ref Frames
Format settings, CABAC : Yes
Format settings, Reference frames : 3 frames
Codec ID : V_MPEG4/ISO/AVC
Duration : 1 h 49 min
Bit rate mode : Variable
Bit rate : 3 320 kb/s
Maximum bit rate : 4 980 kb/s
Width : 1 920 pixels
Height : 1 080 pixels
Display aspect ratio : 16:9
Frame rate mode : Constant
Frame rate : 25.000 FPS
Color space : YUV
Chroma subsampling : 4:2:0
Bit depth : 8 bits
Scan type : Progressive
Bits/(Pixel*Frame) : 0.064
Stream size : 2.54 GiB (84%)
Writing library : x264 core 148 r2715 7e75228
Encoding settings : cabac=1 / ref=3 / deblock=1:0:0 / analyse=0x1:0x111 / me=umh / subme=10 / psy=1 / psy_rd=1.00:0.00 / mixed_ref=1 / me_range=24 / chroma_me=1 / trellis=2 / 8x8dct=0 / cqm=0 / deadzone=21,11 / fast_pskip=1 / chroma_qp_offset=-2 / threads=8 / lookahead_threads=1 / sliced_threads=0 / nr=0 / decimate=1 / interlaced=0 / bluray_compat=0 / stitchable=1 / constrained_intra=0 / bframes=2 / b_pyramid=0 / b_adapt=2 / b_bias=0 / direct=3 / weightb=1 / open_gop=0 / weightp=2 / keyint=250 / keyint_min=25 / scenecut=0 / intra_refresh=0 / rc_lookahead=50 / rc=2pass / mbtree=1 / bitrate=3320 / ratetol=1.0 / qcomp=0.50 / qpmin=6 / qpmax=51 / qpstep=4 / cplxblur=20.0 / qblur=0.5 / vbv_maxrate=4980 / vbv_bufsize=6640 / nal_hrd=vbr / filler=0 / ip_ratio=1.40 / aq=1:1.00
Default : Yes
Forced : No

Audio
ID : 2
Format : E-AC-3
Format/Info : Enhanced AC-3
Commercial name : Dolby Digital Plus
Codec ID : A_EAC3
Duration : 1 h 49 min
Bit rate mode : Constant
Bit rate : 640 kb/s
Channel(s) : 6 channels
Channel layout : L R C LFE Ls Rs
Sampling rate : 48.0 kHz
Frame rate : 31.250 FPS (1536 SPF)
Compression mode : Lossy
Stream size : 502 MiB (16%)
Language : Italian
Service kind : Complete Main
Default : Yes
Forced : No

Text #1
ID : 3
Format : UTF-8
Codec ID : S_TEXT/UTF8
Codec ID/Info : UTF-8 Plain Text
Duration : 1 h 44 min
Bit rate : 51 b/s
Count of elements : 1307
Stream size : 39.7 KiB (0%)
Title : SDH
Language : English
Default : No
Forced : No

Text #2
ID : 4
Format : UTF-8
Codec ID : S_TEXT/UTF8
Codec ID/Info : UTF-8 Plain Text
Duration : 1 h 42 min
Bit rate : 56 b/s
Count of elements : 1317
Stream size : 42.7 KiB (0%)
Language : Spanish
Default : No
Forced : No

Text #3
ID : 5
Format : UTF-8
Codec ID : S_TEXT/UTF8
Codec ID/Info : UTF-8 Plain Text
Duration : 1 h 42 min
Bit rate : 50 b/s
Count of elements : 1253
Stream size : 38.1 KiB (0%)
Title : Brazilian
Language : Portuguese
Default : No
Forced : No





1 個附件 售價 大小 下載 時間

Euforia.2018.ITALIAN.1080p.NF.WEBRip.DDP5.1.x264-IKA.torrent 0 金幣 30.80K 287 次 3月前

#1樓
發帖時間:2019-11-04 19:08:51   |   回復數:1
911degrees
隱世仙人♂
非常感謝,謝謝分享
3月前 #2樓
游客組