conanlcg
超級版主

[2019] [歐美] [喜劇] [WEB-1080P] 小屋詭事 Tales.From.The.Lodge.2019.1080p.WEB-DL.DD5.1.H264-FGT 3.23GB

-->

帖子完整標題:小屋詭事 Tales.From.The.Lodge.2019.1080p.WEB-DL.DD5.1.H264-FGT 3.23GB




◎譯  名 小屋詭事
◎片  名 Tales from the Lodge
◎年  代 2019
◎產  地 英國
◎類  別 喜劇 / 恐怖
◎語  言 英語
◎上映日期 2019-03-19(西南偏南電影節)
◎IMDb評分 5.3/10 from 50 users
◎IMDb鏈接 https://www.imdb.com/title/tt4522922
◎豆瓣評分 0/10 from 0 users
◎豆瓣鏈接 https://movie.douban.com/subject/30466324/
◎導  演 Abigail Blackmore
◎編  劇 Abigail Blackmore
◎主  演 麥肯錫·克魯克 Mackenzie Crook
      Dustin Demri-Burns
      勞拉·弗雷澤 Laura Fraser


◎標  簽 喜劇 | 英國 | 英國電影 | 英國 | 海報設計 | 恐怖 | AbigailBlackmore | 2019

◎簡  介

  Tales From The Lodge is a fresh take on the portmanteau horror-comedy genre. An isolated lodge somewhere in England. Five old university pals, now nudging 40, gather for a weekend to scatter the ashes of their friend, Jonesy, who drowned himself in the lake three years earlier. They settle in for a fun evening, entertaining each other with stories of murders, ghosts, zombies and possessions, but as day turns to night, the gang become aware of another horror story unfolding around them - And this one is real.
Video
ID : 1
Format : AVC
Format/Info : Advanced Video Codec
Format profile : [email protected]
Format settings : CABAC / 5 Ref Frames
Format settings, CABAC : Yes
Format settings, Reference frames : 5 frames
Codec ID : V_MPEG4/ISO/AVC
Duration : 1 h 33 min
Bit rate : 4 581 kb/s
Width : 1 916 pixels
Height : 852 pixels
Display aspect ratio : 2.25:1
Frame rate mode : Constant
Frame rate : 24.000 FPS
Color space : YUV
Chroma subsampling : 4:2:0
Bit depth : 8 bits
Scan type : Progressive
Bits/(Pixel*Frame) : 0.117
Stream size : 2.98 GiB (92%)
Title : Tales.From.The.Lodge.2019.1080p.WEB-DL.DD5.1.H264-FGT
Language : English
Default : Yes
Forced : No
Color range : Limited
Color primaries : BT.709
Transfer characteristics : BT.709
Matrix coefficients : BT.709

Audio
ID : 2
Format : AC-3
Format/Info : Audio Coding 3
Commercial name : Dolby Digital
Codec ID : A_AC3
Duration : 1 h 33 min
Bit rate mode : Constant
Bit rate : 384 kb/s
Channel(s) : 6 channels
Channel layout : L R C LFE Ls Rs
Sampling rate : 48.0 kHz
Frame rate : 31.250 FPS (1536 SPF)
Bit depth : 16 bits
Compression mode : Lossy
Stream size : 256 MiB (8%)
Title : Tales.From.The.Lodge.2019.1080p.WEB-DL.DD5.1.H264-FGT
Language : English
Service kind : Complete Main
Default : Yes
Forced : No

Menu
00:00:00.000 : en:1
00:19:25.000 : en:2
00:49:37.000 : en:3
01:05:15.000 : en:4
01:30:05.000 : en:5





1 個附件 售價 大小 下載 時間

Tales.From.The.Lodge.2019.1080p.WEB-DL.DD5.1.H264-FGT.torrent 0 金幣 32.87K 371 次 3月前

#1樓
發帖時間:2019-11-04 19:44:07   |   回復數:1
911degrees
隱世仙人♂
非常感謝,謝謝分享
3月前 #2樓
游客組