conanlcg
超級版主

[2019] [其他] [其他] [WEB-1080P] 薩爾瑪的夙愿 Salmas.Big.Wish.2019.1080p.WEB-DL.DD5.1.H264-FGT 2.90GB

-->

帖子完整標題:薩爾瑪的夙愿 Salmas.Big.Wish.2019.1080p.WEB-DL.DD5.1.H264-FGT 2.90GB




◎譯  名 薩爾瑪的夙愿 / Salma's Big Wish
◎片  名 Dia de Muertos
◎年  代 2019
◎產  地 墨西哥
◎類  別 動畫 / 家庭 / 奇幻
◎語  言 英語 / 西班牙語 / 法語
◎上映日期 2019-10-25(西班牙)
◎IMDb評分 6.3/10 from 91 users
◎IMDb鏈接 https://www.imdb.com/title/tt4500214
◎豆瓣評分 0/10 from 0 users
◎豆瓣鏈接 https://movie.douban.com/subject/33412988/
◎片  長 89分鐘
◎導  演 Carlos Gutiérrez Medrano
◎主  演 Camila Amezcua
      Rocco Amezcua
      Connor Andrade
      迪諾·安德拉德 Dino Andrade
      Dani Artaud
      蘇珊娜·巴列斯特羅斯 Susana Ballesteros
      Luis Dubuc


◎標  簽 上海電影節 | 2019 | 墨西哥 | SIFF | 墨西哥電影 | MOVIE | 成片 | B南美

◎簡  介

  在墨西哥的圣克拉拉鎮,住著一個十六歲的孤兒薩爾瑪。她從未見過親生父母,人們一直告訴她父母拋棄了她。薩爾瑪一生中的大部分時間都在尋找關于父母的身份和下落的線索,但幸運女神似乎從未降臨,直到她發現了一本特別的書,里面充滿了發生在圣克拉拉的故事以及當地居民的歷史。帶著這本書,薩爾瑪和她的兩個勇敢而溫暖的養兄弟豪爾赫和佩德羅踏上了一段冒險之旅,尋找自己與家族歷史之間的聯系,希望最終能見到失散多年的父母。

◎獲獎情況

  第29屆安錫國際動畫節(2019)
  長篇動畫單元 最佳故事片(提名) Carlos Gutiérrez Medrano
Video
ID : 1
Format : AVC
Format/Info : Advanced Video Codec
Format profile : [email protected]
Format settings : CABAC / 5 Ref Frames
Format settings, CABAC : Yes
Format settings, Reference frames : 5 frames
Codec ID : V_MPEG4/ISO/AVC
Duration : 1 h 24 min
Bit rate : 4 528 kb/s
Width : 1 912 pixels
Height : 800 pixels
Display aspect ratio : 2.40:1
Frame rate mode : Constant
Frame rate : 25.000 FPS
Color space : YUV
Chroma subsampling : 4:2:0
Bit depth : 8 bits
Scan type : Progressive
Bits/(Pixel*Frame) : 0.118
Stream size : 2.67 GiB (92%)
Title : Salmas.Big.Wish.2019.1080p.WEB-DL.DD5.1.H264-FGT
Language : English
Default : Yes
Forced : No
Color range : Limited
Color primaries : BT.709
Transfer characteristics : BT.709
Matrix coefficients : BT.709

Audio
ID : 2
Format : AC-3
Format/Info : Audio Coding 3
Commercial name : Dolby Digital
Codec ID : A_AC3
Duration : 1 h 24 min
Bit rate mode : Constant
Bit rate : 384 kb/s
Channel(s) : 6 channels
Channel layout : L R C LFE Ls Rs
Sampling rate : 48.0 kHz
Frame rate : 31.250 FPS (1536 SPF)
Bit depth : 16 bits
Compression mode : Lossy
Stream size : 232 MiB (8%)
Title : Salmas.Big.Wish.2019.1080p.WEB-DL.DD5.1.H264-FGT
Language : English
Service kind : Complete Main
Default : Yes
Forced : No





1 個附件 售價 大小 下載 時間

Salmas.Big.Wish.2019.1080p.WEB-DL.DD5.1.H264-FGT.torrent 0 金幣 29.54K 301 次 3月前

#1樓
發帖時間:2019-11-04 19:46:10   |   回復數:1
911degrees
隱世仙人♂
非常感謝,謝謝分享
3月前 #2樓
游客組