conanlcg
超級版主

[更 早] [歐美] [動作] [WEB-1080P] 十字追殺令3 Cross.3.2019.1080p.WEB-DL.DD5.1.H264-FGT 3.89GB

-->

帖子完整標題:十字追殺令3 Cross.3.2019.1080p.WEB-DL.DD5.1.H264-FGT 3.89GB




◎譯  名 十字追殺令3
◎片  名 Cross 3
◎年  代 2020
◎產  地 美國
◎類  別 動作
◎語  言 英語
◎IMDb鏈接 https://www.imdb.com/title/tt6197400
◎豆瓣評分 0/10 from 0 users
◎豆瓣鏈接 https://movie.douban.com/subject/33384699/
◎導  演 Patrick Durham
◎編  劇 Patrick Durham
◎主  演 布萊恩·奧斯汀·格林 Brian Austin Green
      湯姆·塞茲摩爾 Tom Sizemore
      維尼·瓊斯 Vinnie Jones
      丹尼·特雷霍 Danny Trejo


◎簡  介

  暫無相關劇情介紹
Video
ID : 1
Format : AVC
Format/Info : Advanced Video Codec
Format profile : [email protected]
Format settings : CABAC / 4 Ref Frames
Format settings, CABAC : Yes
Format settings, Reference frames : 4 frames
Codec ID : V_MPEG4/ISO/AVC
Duration : 1 h 40 min
Bit rate : 5 186 kb/s
Width : 1 920 pixels
Height : 1 080 pixels
Display aspect ratio : 16:9
Frame rate mode : Constant
Frame rate : 23.976 FPS
Color space : YUV
Chroma subsampling : 4:2:0
Bit depth : 8 bits
Scan type : Progressive
Bits/(Pixel*Frame) : 0.104
Stream size : 3.62 GiB (93%)
Title : Cross.3.2019.1080p.WEB-DL.DD5.1.H264-FGT
Language : English
Default : Yes
Forced : No
Color range : Limited
Color primaries : BT.709
Transfer characteristics : BT.709
Matrix coefficients : BT.709

Audio
ID : 2
Format : AC-3
Format/Info : Audio Coding 3
Commercial name : Dolby Digital
Codec ID : A_AC3
Duration : 1 h 40 min
Bit rate mode : Constant
Bit rate : 384 kb/s
Channel(s) : 6 channels
Channel layout : L R C LFE Ls Rs
Sampling rate : 48.0 kHz
Frame rate : 31.250 FPS (1536 SPF)
Bit depth : 16 bits
Compression mode : Lossy
Stream size : 275 MiB (7%)
Title : Cross.3.2019.1080p.WEB-DL.DD5.1.H264-FGT
Language : English
Service kind : Complete Main
Default : Yes
Forced : No

Text
ID : 3
Format : UTF-8
Codec ID : S_TEXT/UTF8
Codec ID/Info : UTF-8 Plain Text
Duration : 1 h 37 min
Bit rate : 88 b/s
Count of elements : 1626
Stream size : 63.4 KiB (0%)
Language : English
Default : Yes
Forced : No

Menu
00:00:00.000 : en:1
00:05:11.519 : en:2
00:12:00.177 : en:3
00:18:26.520 : en:4
00:25:40.578 : en:5
00:29:15.960 : en:6
00:35:28.749 : en:7
00:43:48.457 : en:8
00:48:54.721 : en:9
00:53:16.190 : en:10
01:01:49.494 : en:11
01:05:59.869 : en:12
01:13:21.935 : en:13
01:17:56.500 : en:14
01:24:20.050 : en:15
01:31:25.682 : en:16





1 個附件 售價 大小 下載 時間

Cross.3.2019.1080p.WEB-DL.DD5.1.H264-FGT.torrent 0 金幣 39.43K 700 次 3月前

#1樓
發帖時間:2019-11-04 19:48:44   |   回復數:2
chulps
一代宗師
ddd
3月前 #2樓
911degrees
隱世仙人♂
非常感謝,謝謝分享
3月前 #3樓
游客組