coor
一代宗師

[2009] [韓國] [劇情] [WEB-1080P] 奔跑的烏龜 Running.Turtle.2009.KOREAN.1080p.NF.WEBRip.DD5.1.x264-NTb 4.49GB

-->

帖子完整標題:奔跑的烏龜 Running.Turtle.2009.KOREAN.1080p.NF.WEBRip.DD5.1.x264-NTb 4.49GB




◎譯  名 奔跑的烏龜 / Running Turtle / 囧途追擊(臺) / 疾走海龜(港)
◎片  名 ??? ???
◎年  代 2009
◎產  地 韓國
◎類  別 劇情
◎語  言 韓語
◎上映日期 2009-06-11
◎IMDb評分 6.6/10 from 527 users
◎IMDb鏈接 https://www.imdb.com/title/tt1517239
◎豆瓣評分 6.8/10 from 1251 users
◎豆瓣鏈接 https://movie.douban.com/subject/3765843/
◎導  演 李延宇 Yeon-woo Lee
◎編  劇 李延宇 Yeon-woo Lee
◎主  演 金允石 Yoon-suk Kim
      鄭京浩 Kyeong-ho Jeong
      甄美里 Mi-ri Gyeon
      鮮于善 Woo-seon Seon
      金智娜
      申正根 Jeong-geun Sin
      崔權 Kwon Choi
      車恩在
      朱振模
      李文生
      柳河福
      林亨澤
      金熙元 Hae-won Kim


◎標  簽 韓國 | 韓國電影 | 金允石 | 喜劇 | 警匪 | 動作 | 2009 | 奔跑的烏龜

◎簡  介

  在《烏龜在跑》中,金潤錫飾演了一名鄉村警察趙弼升。與金潤錫在《追擊者》中所塑造的敢于和連鎖殺人犯周旋的警察不同,金潤錫在《烏龜在跑》中塑造的的鄉村警察是一個安詳的,遇事不慌不忙且少言寡語的警察。還有把警察們戲弄得夠嗆的神出鬼沒的退越獄犯宋基泰(鄭京浩)!

◎獲獎情況

  第4屆亞洲電影大獎(2010)
  最佳原創音樂(提名) 李炳勛 / 張領圭
Video
ID : 1
Format : AVC
Format/Info : Advanced Video Codec
Format profile : [email protected]
Format settings : CABAC / 3 Ref Frames
Format settings, CABAC : Yes
Format settings, Reference frames : 3 frames
Codec ID : V_MPEG4/ISO/AVC
Duration : 1 h 57 min
Bit rate mode : Variable
Bit rate : 5 110 kb/s
Maximum bit rate : 7 665 kb/s
Width : 1 920 pixels
Height : 1 080 pixels
Display aspect ratio : 16:9
Frame rate mode : Constant
Frame rate : 23.976 (24000/1001) FPS
Color space : YUV
Chroma subsampling : 4:2:0
Bit depth : 8 bits
Scan type : Progressive
Bits/(Pixel*Frame) : 0.103
Stream size : 4.18 GiB (93%)
Writing library : x264 core 118
Encoding settings : cabac=1 / ref=3 / deblock=1:0:0 / analyse=0x1:0x111 / me=umh / subme=10 / psy=1 / psy_rd=1.00:0.00 / mixed_ref=1 / me_range=24 / chroma_me=1 / trellis=2 / 8x8dct=0 / cqm=0 / deadzone=21,11 / fast_pskip=1 / chroma_qp_offset=-2 / threads=8 / sliced_threads=0 / nr=0 / decimate=1 / interlaced=0 / bluray_compat=0 / constrained_intra=0 / bframes=2 / b_pyramid=0 / b_adapt=2 / b_bias=0 / direct=3 / weightb=1 / open_gop=0 / weightp=2 / keyint=48 / keyint_min=25 / scenecut=0 / intra_refresh=0 / rc_lookahead=0 / rc=2pass / mbtree=1 / bitrate=5110 / ratetol=1.0 / qcomp=0.50 / qpmin=6 / qpmax=51 / qpstep=4 / cplxblur=20.0 / qblur=0.5 / vbv_maxrate=7665 / vbv_bufsize=10220 / nal_hrd=vbr / ip_ratio=1.40 / aq=1:1.00
Default : Yes
Forced : No

Audio
ID : 2
Format : AC-3
Format/Info : Audio Coding 3
Commercial name : Dolby Digital
Codec ID : A_AC3
Duration : 1 h 57 min
Bit rate mode : Constant
Bit rate : 384 kb/s
Channel(s) : 6 channels
Channel layout : L R C LFE Ls Rs
Sampling rate : 48.0 kHz
Frame rate : 31.250 FPS (1536 SPF)
Compression mode : Lossy
Stream size : 322 MiB (7%)
Title : Korean
Language : Korean
Service kind : Complete Main
Default : Yes
Forced : No

Text #1
ID : 3
Format : UTF-8
Codec ID : S_TEXT/UTF8
Codec ID/Info : UTF-8 Plain Text
Duration : 1 h 53 min
Bit rate : 44 b/s
Count of elements : 1512
Stream size : 37.5 KiB (0%)
Language : English
Default : Yes
Forced : No

Text #2
ID : 4
Format : UTF-8
Codec ID : S_TEXT/UTF8
Codec ID/Info : UTF-8 Plain Text
Duration : 1 h 53 min
Bit rate : 75 b/s
Count of elements : 1516
Stream size : 62.9 KiB (0%)
Language : Arabic
Default : No
Forced : No

Text #3
ID : 5
Format : UTF-8
Codec ID : S_TEXT/UTF8
Codec ID/Info : UTF-8 Plain Text
Duration : 1 h 53 min
Bit rate : 68 b/s
Count of elements : 1505
Stream size : 57.3 KiB (0%)
Language : Bulgarian
Default : No
Forced : No

Text #4
ID : 6
Format : UTF-8
Codec ID : S_TEXT/UTF8
Codec ID/Info : UTF-8 Plain Text
Duration : 1 h 53 min
Bit rate : 46 b/s
Count of elements : 1518
Stream size : 38.7 KiB (0%)
Language : Spanish
Default : No
Forced : No

Text #5
ID : 7
Format : UTF-8
Codec ID : S_TEXT/UTF8
Codec ID/Info : UTF-8 Plain Text
Duration : 1 h 53 min
Bit rate : 46 b/s
Count of elements : 1507
Stream size : 39.1 KiB (0%)
Language : French
Default : No
Forced : No

Text #6
ID : 8
Format : UTF-8
Codec ID : S_TEXT/UTF8
Codec ID/Info : UTF-8 Plain Text
Duration : 1 h 53 min
Bit rate : 53 b/s
Count of elements : 1511
Stream size : 44.9 KiB (0%)
Language : Korean
Default : No
Forced : No

Text #7
ID : 9
Format : UTF-8
Codec ID : S_TEXT/UTF8
Codec ID/Info : UTF-8 Plain Text
Duration : 1 h 53 min
Bit rate : 82 b/s
Count of elements : 1845
Stream size : 68.8 KiB (0%)
Title : SDH
Language : Korean
Default : No
Forced : No

Text #8
ID : 10
Format : UTF-8
Codec ID : S_TEXT/UTF8
Codec ID/Info : UTF-8 Plain Text
Duration : 1 h 53 min
Bit rate : 47 b/s
Count of elements : 1514
Stream size : 39.5 KiB (0%)
Title : Brazilian
Language : Portuguese
Default : No
Forced : No

Text #9
ID : 11
Format : UTF-8
Codec ID : S_TEXT/UTF8
Codec ID/Info : UTF-8 Plain Text
Duration : 1 h 53 min
Bit rate : 103 b/s
Count of elements : 1513
Stream size : 86.7 KiB (0%)
Language : Thai
Default : No
Forced : No

Text #10
ID : 12
Format : UTF-8
Codec ID : S_TEXT/UTF8
Codec ID/Info : UTF-8 Plain Text
Duration : 1 h 53 min
Bit rate : 43 b/s
Count of elements : 1516
Stream size : 36.0 KiB (0%)
Language : Turkish
Default : No
Forced : No

Text #11
ID : 13
Format : UTF-8
Codec ID : S_TEXT/UTF8
Codec ID/Info : UTF-8 Plain Text
Duration : 1 h 53 min
Bit rate : 46 b/s
Count of elements : 1517
Stream size : 38.8 KiB (0%)
Title : Simplified
Language : Chinese
Default : No
Forced : No

Text #12
ID : 14
Format : UTF-8
Codec ID : S_TEXT/UTF8
Codec ID/Info : UTF-8 Plain Text
Duration : 1 h 53 min
Bit rate : 47 b/s
Count of elements : 1516
Stream size : 39.6 KiB (0%)
Title : Traditional
Language : Chinese
Default : No
Forced : No





1 個附件 售價 大小 下載 時間

Running.Turtle.2009.KOREAN.1080p.NF.WEBRip.DD5.1.x264-NTb.torrent 0 金幣 90.42K 420 次 7天前

#1樓
發帖時間:2020-02-15 01:06:18   |   回復數:2
911degrees
隱世仙人♂
非常感謝,謝謝分享
7天前 #2樓
kola13
一派掌門
感謝分享
6天前 #3樓
游客組