coor
一代宗師

[2017] [歐美] [其他] [WEB-1080P] 幽靈之城 City.of.Ghosts.2017.1080p.WEB-DL.DD5.1.H264-FGT 3.56GB

-->

帖子完整標題:幽靈之城 City.of.Ghosts.2017.1080p.WEB-DL.DD5.1.H264-FGT 3.56GB




◎譯  名 幽靈之城 / Miasto duchów
◎片  名 City of Ghosts
◎年  代 2017
◎產  地 美國
◎類  別 紀錄片
◎語  言 英語
◎上映日期 2017-01-24(圣丹斯電影節) / 2017-07-21(英國)
◎IMDb評分 7.4/10 from 3153 users
◎IMDb鏈接 https://www.imdb.com/title/tt6333056
◎豆瓣評分 8.1/10 from 215 users
◎豆瓣鏈接 https://movie.douban.com/subject/26928127/
◎片  長 92分鐘
◎導  演 馬修·海涅曼 Matthew Heineman
◎編  劇 馬修·海涅曼 Matthew Heineman
◎主  演 阿布·巴克爾·巴格達迪 Abu Bakr Al-Baghdadi
      Hamoud
      Hassan
      Hussam
      Naji Jerf


◎標  簽 紀錄片 | 美國 | 2017 | 敘利亞 | 政治 | 恐怖分子 | 美國電影 | Documentary

◎簡  介

  This is the story of a new type of warfare: a battle over ideas, over hearts and minds, over clicks and views.
  《幽靈城》(City of Ghosts) 導演:馬修·海涅曼(Matthew Heineman) 入圍2017年圣丹斯電影節

◎獲獎情況

  第71屆英國電影學院獎(2018)
  電影獎 最佳紀錄片(提名)

  第33屆圣丹斯電影節(2017)
  評審團大獎 紀錄片(提名) 馬修·海涅曼

  第70屆美國導演工會獎(2018)
  最佳紀錄片導演 馬修·海涅曼

  第29屆美國制片人工會獎(2018)
  最佳紀錄片制片人獎(提名)

  第22屆金衛星獎(2018)
  電影部門 最佳紀錄片(提名)

  第30屆芝加哥影評人協會獎(2017)
  最佳紀錄片(提名)
Video
ID : 1
Format : AVC
Format/Info : Advanced Video Codec
Format profile : [email protected]
Format settings : CABAC / 4 Ref Frames
Format settings, CABAC : Yes
Format settings, Reference frames : 4 frames
Codec ID : V_MPEG4/ISO/AVC
Duration : 1 h 32 min
Bit rate : 5 035 kb/s
Width : 1 916 pixels
Height : 1 076 pixels
Display aspect ratio : 16:9
Frame rate mode : Constant
Frame rate : 23.976 (24000/1001) FPS
Color space : YUV
Chroma subsampling : 4:2:0
Bit depth : 8 bits
Scan type : Progressive
Bits/(Pixel*Frame) : 0.102
Stream size : 3.24 GiB (91%)
Title : City.of.Ghosts.2017.DOCU.1080p.WEB-DL.DD5.1.H264-FGT
Language : English
Default : Yes
Forced : No
Color range : Limited
Color primaries : BT.709
Transfer characteristics : BT.709
Matrix coefficients : BT.709

Audio
ID : 2
Format : AC-3
Format/Info : Audio Coding 3
Commercial name : Dolby Digital
Codec ID : A_AC3
Duration : 1 h 32 min
Bit rate mode : Constant
Bit rate : 384 kb/s
Channel(s) : 6 channels
Channel layout : L R C LFE Ls Rs
Sampling rate : 48.0 kHz
Frame rate : 31.250 FPS (1536 SPF)
Compression mode : Lossy
Stream size : 253 MiB (7%)
Title : City.of.Ghosts.2017.DOCU.1080p.WEB-DL.DD5.1.H264-FGT
Language : English
Service kind : Complete Main
Default : Yes
Forced : No

Text
ID : 3
Format : UTF-8
Codec ID : S_TEXT/UTF8
Codec ID/Info : UTF-8 Plain Text
Language : English
Default : Yes
Forced : No

Menu
00:00:00.000 : en:Chapter 1
00:09:53.000 : en:Chapter 2
00:18:55.000 : en:Chapter 3
00:27:37.000 : en:Chapter 4
00:37:48.000 : en:Chapter 5
00:45:01.000 : en:Chapter 6
00:49:46.000 : en:Chapter 7
01:00:00.000 : en:Chapter 8
01:04:55.000 : en:Chapter 9
01:11:32.000 : en:Chapter 10
01:19:45.000 : en:Chapter 11
01:27:59.000 : en:Chapter 12





1 個附件 售價 大小 下載 時間

City.of.Ghosts.2017.1080p.WEB-DL.DD5.1.H264-FGT.torrent 0 金幣 71.75K 210 次 7天前

#1樓
發帖時間:2020-02-15 02:18:40   |   回復數:1
911degrees
隱世仙人♂
非常感謝,謝謝分享
7天前 #2樓
游客組