coor
一代宗師

[2018] [歐美] [其他] [WEB-1080P] 27歲英年早逝 27.Gone.Too.Soon.2018.1080p.WEB.x264-AMRAP 2.23GB

-->

帖子完整標題:27歲英年早逝 27.Gone.Too.Soon.2018.1080p.WEB.x264-AMRAP 2.23GB




◎譯  名 27歲,英年早逝 / 27: Gone Too Soon / The 27 Club
◎片  名 27,Gone Too Soon
◎年  代 2018
◎產  地 英國
◎類  別 紀錄片
◎語  言 英語
◎上映日期 2018-03-26(英國)
◎IMDb評分 4.8/10 from 834 users
◎IMDb鏈接 https://www.imdb.com/title/tt7490256
◎豆瓣評分 5.7/10 from 94 users
◎豆瓣鏈接 https://movie.douban.com/subject/30210105/
◎片  長 70分鐘
◎導  演 Simon Napier-Bell
◎編  劇 西蒙·納皮爾-貝爾 Simon Napier-Bell
◎主  演 詹尼斯·喬普林 Janis Joplin
      吉米·亨德里克斯 Jimi Hendrix
      艾米·懷恩豪斯 Amy Winehouse
      吉姆·莫里森 Jim Morrison
      科特·柯本 Kurt Cobain


◎標  簽 紀錄片 | 音樂 | 英國 | 2018 | 【類型】紀錄片 | 【類型】音樂 | 英國電影 | 紀錄電影

◎簡  介

  Explore the circumstances surrounding the tragic deaths at 27 of Jimi Hendrix, Jim Morrison, Brian Jones, Janis Joplin, Kurt Cobain and Amy Winehouse.
  Genres: Rock & Pop Concerts, Documentaries
Video
ID : 1
Format : AVC
Format/Info : Advanced Video Codec
Format profile : [email protected]
Format settings : CABAC / 3 Ref Frames
Format settings, CABAC : Yes
Format settings, Reference frames : 3 frames
Codec ID : V_MPEG4/ISO/AVC
Duration : 1 h 10 min
Bit rate mode : Variable
Bit rate : 4 420 kb/s
Maximum bit rate : 6 630 kb/s
Width : 1 920 pixels
Height : 1 080 pixels
Display aspect ratio : 16:9
Frame rate mode : Constant
Frame rate : 23.976 (24000/1001) FPS
Color space : YUV
Chroma subsampling : 4:2:0
Bit depth : 8 bits
Scan type : Progressive
Bits/(Pixel*Frame) : 0.089
Stream size : 2.12 GiB (95%)
Writing library : x264 core 148 r2715 7e75228
Encoding settings : cabac=1 / ref=3 / deblock=1:0:0 / analyse=0x1:0x111 / me=umh / subme=10 / psy=1 / psy_rd=1.00:0.00 / mixed_ref=1 / me_range=24 / chroma_me=1 / trellis=2 / 8x8dct=0 / cqm=0 / deadzone=21,11 / fast_pskip=1 / chroma_qp_offset=-2 / threads=6 / lookahead_threads=1 / sliced_threads=0 / nr=0 / decimate=1 / interlaced=0 / bluray_compat=0 / stitchable=1 / constrained_intra=0 / bframes=2 / b_pyramid=0 / b_adapt=2 / b_bias=0 / direct=3 / weightb=1 / open_gop=0 / weightp=2 / keyint=48 / keyint_min=25 / scenecut=0 / intra_refresh=0 / rc_lookahead=48 / rc=2pass / mbtree=1 / bitrate=4420 / ratetol=1.0 / qcomp=0.50 / qpmin=6 / qpmax=51 / qpstep=4 / cplxblur=20.0 / qblur=0.5 / vbv_maxrate=6630 / vbv_bufsize=8840 / nal_hrd=vbr / filler=0 / ip_ratio=1.40 / aq=1:1.00
Default : Yes
Forced : No

Audio
ID : 2
Format : E-AC-3
Format/Info : Enhanced AC-3
Commercial name : Dolby Digital Plus
Codec ID : A_EAC3
Duration : 1 h 10 min
Bit rate mode : Constant
Bit rate : 128 kb/s
Channel(s) : 2 channels
Channel layout : L R
Sampling rate : 48.0 kHz
Frame rate : 31.250 FPS (1536 SPF)
Compression mode : Lossy
Stream size : 64.5 MiB (3%)
Service kind : Complete Main
Default : Yes
Forced : No

Text #1
ID : 3
Format : UTF-8
Codec ID : S_TEXT/UTF8
Codec ID/Info : UTF-8 Plain Text
Title : English
Language : English
Default : No
Forced : No

Text #2
ID : 4
Format : UTF-8
Codec ID : S_TEXT/UTF8
Codec ID/Info : UTF-8 Plain Text
Title : Swedish
Language : Swedish
Default : No
Forced : No

Text #3
ID : 5
Format : UTF-8
Codec ID : S_TEXT/UTF8
Codec ID/Info : UTF-8 Plain Text
Title : Norwegian
Language : Norwegian
Default : No
Forced : No

Text #4
ID : 6
Format : UTF-8
Codec ID : S_TEXT/UTF8
Codec ID/Info : UTF-8 Plain Text
Title : German
Language : German
Default : No
Forced : No

Text #5
ID : 7
Format : UTF-8
Codec ID : S_TEXT/UTF8
Codec ID/Info : UTF-8 Plain Text
Title : Finnish
Language : Finnish
Default : No
Forced : No





1 個附件 售價 大小 下載 時間

27.Gone.Too.Soon.2018.1080p.WEB.x264-AMRAP.torrent 0 金幣 89.75K 119 次 7天前

#1樓
發帖時間:2020-02-15 02:24:32   |   回復數:1
911degrees
隱世仙人♂
非常感謝,謝謝分享
7天前 #2樓
游客組